<?xml version="1.0" standalone="no"?>
<!DOCTYPE svg PUBLIC "-//W3C//DTD SVG 1.1//EN" "http://www.w3.org/Graphics/SVG/1.1/DTD/svg11.dtd">
<svg xmlns="http://www.w3.org/2000/svg">
<metadata>Generated by Fontastic.me</metadata>
<defs>
<font id="ditty-news-ticker" horiz-adv-x="512">
<font-face font-family="ditty-news-ticker" units-per-em="512" ascent="480" descent="-32"/>
<missing-glyph horiz-adv-x="512" />

<glyph glyph-name="ticker" unicode="&#57344;" d="M325 512l-138 0c-103 0-187-86-187-192 0-97 70-176 160-190l0-130 0 0 128 128 37 0c103 0 187 86 187 192 0 106-84 192-187 192z m-197-240c-26 0-48 22-48 48 0 26 22 48 48 48 26 0 48-22 48-48 0-26-22-48-48-48z m128 0c-26 0-48 22-48 48 0 26 22 48 48 48 26 0 48-22 48-48 0-26-22-48-48-48z m128 0c-26 0-48 22-48 48 0 26 22 48 48 48 26 0 48-22 48-48 0-26-22-48-48-48z"/>
<glyph glyph-name="move" unicode="&#57345;" d="M288 352l64 0-112 128-112-128 64 0 0-192-64 0 112-128 112 128-64 0z"/>
<glyph glyph-name="add" unicode="&#57346;" d="M240 416c-97 0-176-79-176-176 0-97 79-176 176-176 97 0 176 79 176 176 0 97-79 176-176 176z m112-208l-80 0 0-80-64 0 0 80-80 0 0 64 80 0 0 80 64 0 0-80 80 0z"/>
<glyph glyph-name="delete" unicode="&#57347;" d="M240 416c-97 0-176-79-176-176 0-97 79-176 176-176 97 0 176 79 176 176 0 97-79 176-176 176z m112-208l-224 0 0 64 224 0z"/>
<glyph glyph-name="spinner" unicode="&#57348;" d="M75 75c-48 48-75 113-75 181 0 141 115 256 256 256l32-32-32-32c-106 0-192-86-192-192 0-51 20-100 56-136l-39-5z m181-75l-32 32 32 32c106 0 192 86 192 192 0 51-20 100-56 136l39 5 6 40c48-48 75-113 75-181 0-141-115-256-256-256z"/>
<glyph glyph-name="arrow-left" unicode="&#57349;" d="M256 0c141 0 256 115 256 256 0 141-115 256-256 256-141 0-256-115-256-256 0-141 115-256 256-256z m0 384l0-96 128 0 0-64-128 0 0-96-128 128z"/>
<glyph glyph-name="arrow-right" unicode="&#57350;" d="M256 512c-141 0-256-115-256-256 0-141 115-256 256-256 141 0 256 115 256 256 0 141-115 256-256 256z m0-384l0 96-128 0 0 64 128 0 0 96 128-128z"/>
<glyph glyph-name="button" unicode="&#57351;" d="M475 256c0-40-9-77-29-110-20-34-46-60-80-80-33-20-70-29-110-29-40 0-77 9-110 29-34 20-60 46-80 80-20 33-29 70-29 110 0 40 9 77 29 110 20 34 46 60 80 80 33 20 70 29 110 29 40 0 77-9 110-29 34-20 60-46 80-80 20-33 29-70 29-110z"/>
<glyph glyph-name="gear" unicode="&#57352;" d="M329 256c0 20-7 37-21 52-15 14-32 21-52 21-20 0-37-7-52-21-14-15-21-32-21-52 0-20 7-37 21-52 15-14 32-21 52-21 20 0 37 7 52 21 14 15 21 32 21 52z m146 31l0-63c0-3 0-5-2-7-1-2-3-3-6-4l-52-8c-4-10-8-19-12-26 7-9 17-22 31-39 2-2 3-5 3-7 0-3-1-5-3-7-5-7-14-17-28-31-14-13-23-20-27-20-2 0-5 1-7 3l-40 31c-8-5-17-8-26-11-3-26-6-44-8-53-1-6-5-8-10-8l-64 0c-2 0-5 0-7 2-2 2-3 4-3 6l-8 53c-9 3-18 6-26 10l-40-30c-2-2-4-3-7-3-3 0-5 1-7 3-24 22-40 38-47 48-2 2-2 4-2 7 0 2 0 4 2 6 3 4 8 11 14 19 7 9 12 16 16 21-5 9-9 19-12 28l-52 8c-3 0-5 1-6 3-2 2-2 4-2 7l0 63c0 3 0 5 2 7 1 2 3 3 5 4l53 8c3 8 7 17 12 26-8 11-18 24-31 39-2 3-3 5-3 7 0 2 1 4 3 7 5 7 14 17 28 30 14 14 23 21 27 21 2 0 5-1 7-3l40-31c8 5 17 8 26 11 3 26 6 44 8 53 1 6 5 8 10 8l64 0c2 0 5 0 7-2 2-2 3-4 3-6l8-53c9-3 18-6 26-10l40 30c2 2 4 3 7 3 3 0 5-1 7-3 25-23 41-39 47-49 2-1 2-3 2-6 0-2 0-4-2-6-3-4-8-11-14-19-7-9-12-16-16-21 5-9 9-18 12-28l52-8c3 0 5-1 6-3 2-2 2-4 2-7z"/>
<glyph glyph-name="dittynewsticker" unicode="&#57353;" d="M410 461l0-194c0-45-12-83-36-111-13-16-30-29-51-39-21-9-43-14-65-14-43 0-81 15-111 44-29 30-45 66-45 109 0 41 15 77 45 108 30 30 65 45 106 45 5 0 13 0 23-1l0-106c-7 3-14 5-21 5-14 0-26-5-36-16-10-10-15-22-15-37 0-13 5-26 16-36 10-10 23-15 37-15 24 0 52 12 52 69l0 234c-17 4-35 6-53 6-141 0-256-115-256-256 0-141 115-256 256-256 141 0 256 115 256 256 0 84-40 158-102 205z"/>
<glyph glyph-name="flickr" unicode="&#57354;" d="M256 502c68 0 126-24 174-72 48-48 72-106 72-174 0-68-24-125-72-174-48-48-106-72-174-72-68 0-125 24-174 72-48 49-72 106-72 174 0 68 24 126 72 174 49 48 106 72 174 72m-66-297c14 0 26 5 36 15 11 10 16 22 16 36 0 14-5 27-16 37-10 10-22 15-36 15-13 0-25-5-35-15-11-10-16-23-16-37 0-14 5-26 16-36 10-10 22-15 35-15m132 0c14 0 26 5 36 15 10 10 15 22 15 36 0 14-5 27-15 37-10 10-22 15-36 15-14 0-26-5-36-15-10-10-15-23-15-37 0-14 5-26 15-36 10-10 22-15 36-15"/>
<glyph glyph-name="instagram" unicode="&#57355;" d="M66 512l380 0c36 0 66-30 66-66l0-380c0-36-30-66-66-66l-380 0c-36 0-66 30-66 66l0 380c0 36 30 66 66 66z m307-57c-13 0-23-10-23-23l0-55c0-13 10-23 23-23l58 0c13 0 23 10 23 23l0 55c0 13-10 23-23 23z m81-160l-45 0c4-13 7-28 7-43 0-86-72-155-160-155-87 0-159 69-159 155 0 15 3 30 7 43l-47 0 0-216c0-11 9-20 20-20l357 0c11 0 20 9 20 20l0 216z m-198 62c-56 0-102-45-102-100 0-55 46-100 102-100 57 0 103 45 103 100 0 55-46 100-103 100z"/>
<glyph glyph-name="download" unicode="&#57356;" d="M320 352l-128 0 0-96-64 0 128-128 128 128-64 0z m-64 160c-141 0-256-115-256-256 0-141 115-256 256-256 141 0 256 115 256 256 0 141-115 256-256 256m0-448c-106 0-192 86-192 192 0 106 86 192 192 192 106 0 192-86 192-192 0-106-86-192-192-192"/>
<glyph glyph-name="social-500px" unicode="&#57357;" d="M334 291c-5 0-11-1-15-3-5-2-10-5-14-9-5-3-9-7-13-11-4-4-7-8-10-11 3-4 7-8 11-12 4-4 8-7 12-10 5-3 9-6 14-7 5-2 10-3 16-3 10 0 17 3 23 9 5 7 7 14 7 24 0 9-2 17-8 23-6 7-13 10-23 10z m-111-23c-4 4-9 8-13 11-5 4-10 7-15 9-5 2-10 3-15 3-9 0-16-3-22-10-5-7-8-15-8-24 0-9 3-17 9-23 5-6 13-9 23-9 5 0 10 1 15 3 5 2 9 4 14 7 4 3 8 7 12 10 4 4 8 8 11 12-3 3-7 7-11 11z m181 172l-296 0c-20 0-36-16-36-36l0-296c0-20 16-36 36-36l296 0c20 0 36 16 36 36l0 296c0 20-16 36-36 36z m-6-210c-3-9-8-17-14-24-5-6-13-12-21-15-9-4-18-6-29-6-8 0-16 1-23 4-7 2-14 5-20 9-6 5-12 9-17 15-6 5-11 11-16 16-6-5-11-11-16-16-6-6-11-10-17-15-6-4-13-7-20-9-7-3-14-4-23-4-11 0-21 2-29 6-8 3-16 8-22 15-6 6-10 14-14 23-3 9-4 19-4 29 0 10 1 20 4 29 3 8 8 16 13 23 6 6 13 11 22 15 8 4 18 6 28 6 9 0 17-2 24-4 7-3 14-6 20-11 7-4 12-9 18-15 5-5 11-11 16-18 5 6 10 12 15 18 6 6 12 11 18 15 6 5 13 8 20 11 7 2 15 4 24 4 10 0 20-2 28-6 8-4 16-9 21-15 6-6 11-14 14-23 3-8 5-18 5-28 0-11-2-20-5-29z"/>
<glyph glyph-name="social-adobe" unicode="&#57358;" d="M304 419l136-326 0 326z m-232 0l0-326 136 326z m124-261l64 0 26-65 57 0-87 206z"/>
<glyph glyph-name="social-amazon" unicode="&#57359;" d="M266 328c-22-2-44-4-65-11-44-13-67-43-66-87 0-39 23-65 63-70 25-2 49 2 70 19 6 5 11 10 17 14 8-9 16-18 25-27 5-6 10-6 16-1 11 10 22 19 33 29 6 5 7 9 1 15-12 15-17 32-17 51 1 35 1 70 0 104-1 27-15 47-39 58-38 16-76 16-113-1-26-11-41-31-47-58-2-9 0-12 9-13 13-2 26-4 39-5 7-1 11 1 13 8 4 21 25 32 45 29 13-2 23-10 25-22 1-10 1-21 2-31-2 0-3-1-3-1-3 0-5 0-8 0z m-1-101c-6-10-14-17-26-19-19-3-33 9-34 29-2 27 12 45 38 50 11 2 22 3 33 4 0-23 2-45-11-64z m121-78c-2-1-4-1-5-2-26-11-51-19-78-25-26-5-51-7-77-5-32 3-61 13-90 28-18 9-35 18-53 28-6 3-11 2-14-2-3-4-2-10 3-14 18-13 35-28 54-41 35-24 73-38 123-38 40 1 85 14 126 38 7 4 14 9 21 14 6 4 7 9 4 14-3 5-8 7-14 5z m38 39c-19 2-38 0-55-12-4-3-6-7-4-12 2-4 6-5 11-4 8 1 17 2 26 3 0 0 0 0 0 0 3 0 6 0 9 0 4 0 6-2 5-6-1-4-2-8-3-13-2-8-6-15-8-23 0-3 0-7 2-9 2-1 6-2 9-1 2 0 4 2 6 4 13 14 20 30 22 49 2 18-1 22-20 24z"/>
<glyph glyph-name="social-android" unicode="&#57360;" d="M310 419l18 32c1 1 0 3-2 4-1 1-4 1-4-1l-18-32c-14 7-31 10-48 10-17 0-34-3-48-10l-18 32c-1 2-3 2-4 1-2-1-3-3-2-4l18-32c-34-17-57-50-57-89l222 0c0 39-23 72-57 89z m-105-48c-5 0-9 4-9 9 0 5 4 9 9 9 6 0 10-4 10-9 0-5-4-9-10-9z m102 0c-6 0-10 4-10 9 0 5 4 9 10 9 5 0 9-4 9-9 0-5-4-9-9-9z m118-69c0 14-11 25-25 25-13 0-24-12-24-25l0-103c0-14 11-25 24-25 14 0 25 11 25 25z m-59 20l-220 0 0-160c0-4 1-8 3-12 4-8 13-14 23-14l18 0 0-55c0-2 0-3 1-5 2-11 12-20 24-20 1 0 3 0 5 1 11 2 19 12 19 24l0 55 34 0 0-55c0-12 8-22 19-24 2 0 4-1 5-1 14 0 25 11 25 25l0 55 18 0c5 0 9 1 13 3 8 5 13 13 13 23z m-254 5c-14 0-25-12-25-25l0-103c0-9 4-17 11-21 4-3 9-4 14-4 12 0 22 8 24 20 0 1 0 3 0 5l0 103c0 13-11 25-24 25z"/>
<glyph glyph-name="social-apple" unicode="&#57361;" d="M420 323c-21 27-51 42-79 42-37 0-52-18-78-18-26 0-46 18-78 18-32 0-65-19-87-52-29-46-24-132 24-206 17-26 40-56 71-56 26 0 34 17 70 18 37 0 44-18 71-18 30 1 54 33 71 60 13 18 17 28 27 49-70 27-81 125-12 163z m-107 71c14 18 24 42 20 67-22-2-47-16-62-34-14-16-25-41-21-65 24 0 49 14 63 32z"/>
<glyph glyph-name="social-behance" unicode="&#57362;" d="M329 224c-17 0-23-13-24-19l44 0c0 4-1 9-6 14-3 3-8 5-14 5z m-116-24c0 0 0 0 0 0l-42 0 0-36 40 0c7 0 16 3 16 18 0 18-12 18-14 18z m192 240l-297 0c-16 0-30-11-35-25l0-318c4-13 15-22 27-25l312 0c12 3 23 12 27 24l0 320c-5 14-19 24-34 24z m-112-156c0 2 1 3 3 3l64 0c1 0 2-1 2-3l0-19c0-1-1-2-2-2l-64 0c-2 0-3 1-3 2z m-27-105c0-25-13-36-24-42-11-6-24-6-27-6l-81 0c-1 0-3 1-3 2l0 155c0 1 2 2 3 2l80 0c29 0 47-16 47-43 0-17-8-25-16-29 4-1 8-4 11-7 11-12 10-31 10-32z m119 2c0-1-1-2-2-2l-78 0c1-9 4-15 10-18 6-4 12-4 14-4 0 0 1 0 1 0 9 0 15 2 19 6 3 4 3 8 3 8 0 1 0 1 1 2 0 0 1 1 2 1l27 0c1 0 3-1 3-3 0-41-45-44-54-44-1 0-2 0-2 0 0 0 0 0 0 0-20 0-36 6-47 18-17 18-15 43-15 44 0 1 0 16 8 31 7 14 22 31 54 31 18 0 33-6 43-17 17-20 14-52 13-53z m-163 64c0 13-8 14-9 14l-42 0 0-30 39 0c6 0 12 1 12 16z"/>
<glyph glyph-name="social-bing" unicode="&#57363;" d="M356 224c0 38-44 69-99 69-55 0-99-31-99-69 0-39 44-70 99-70 55 0 99 31 99 70z m39 92c-36 25-82 37-126 40-52 0-103-7-149-39l0 99-58 0 0-179c0-75 50-108 115-132 24-6 50-9 79-9 28 0 54 3 78 9 23 6 44 15 61 25 17 10 30 23 40 36 9 14 14 29 14 45 7 53-30 88-54 105z m-122-188c-65-2-141 18-149 94-4 42 38 96 132 99 38 1 128-20 134-93 4-44-52-98-117-100z"/>
<glyph glyph-name="social-blogger" unicode="&#57364;" d="M380 440l-247 0c-34 0-61-27-61-61l0-246c0-34 27-61 61-61l247 0c33 0 60 27 60 61l0 246c0 34-27 61-60 61z m-12-225c0-39-32-71-72-71l-82 0c-39 0-71 32-71 71l0 83c0 40 32 72 71 72l50 0c19-2 46-18 55-39 3-6 5-7 7-24 1-9 2-16 6-20 5-5 26-1 30-5l4-2 2-4 0-3z m-153 69l40 0c7 0 14 6 14 14 0 7-7 13-14 13l-40 0c-7 0-13-6-13-13 0-8 6-14 13-14z m81-54l-81 0c-7 0-13-6-13-14 0-7 6-13 13-13l81 0c7 0 13 6 13 13 0 8-6 14-13 14z"/>
<glyph glyph-name="social-delicious" unicode="&#57365;" d="M256 256l0 174-174 0 0-174 174 0 0-174 174 0 0 174z"/>
<glyph glyph-name="social-designer-news" unicode="&#57366;" d="M342 318l1-81-47 76-3 5-28 0 0-128 31 0-1 78 50-78 28 0 0 128z m62 122l-296 0c-20 0-36-16-36-36l0-296c0-20 16-36 36-36l162 0-143 115 0 136 54 0c20 0 31-2 43-10 7-4 12-9 17-16 2-3 4-6 5-8l14-11 0 45 36 0 2-2 0-1 39-31 0 29 0 5 41 0 0 0 62-50 0 131c0 20-16 36-36 36z m-195-125c-7 2-15 3-25 3-1 0-2 0-3 0l-43 0 0-128 50 0c37 0 61 26 61 64 0 16-4 29-12 40-1 1-2 2-3 4-1 0-1 1-2 2 0 0-1 1-1 1-1 1-1 1-2 2-1 1-1 1-2 2-1 0-1 1-2 1-1 1-2 2-4 3-1 1-2 1-4 2-1 1-2 1-3 2 0 0-1 0-1 0-1 1-2 1-4 2z m7-62c0-22-11-34-31-34l-14 0 0 70 14 0c20 0 31-13 31-36z"/>
<glyph glyph-name="social-deviant-art" unicode="&#57367;" d="M237 283c11 4 38 9 57 6l24-50 67 16c4 0 5 5 0 9-42 34-83 41-165 23l49-101-169-48 0-31c0-1 0-2 1-2 1-1 2-2 3-2l303 0c1 0 2 1 3 2 1 0 1 1 1 2l0 118-129-35c0 0-36 73-45 93z m170 129l-303 0c-1 0-2 0-2-1-2 0-2-2-2-3l0-132c6 5 30 23 54 30l-20 46 56 0c0 0 15-32 15-33 20 7 118 22 205-15l1-1 0 105c0 1-1 3-2 3 0 1-1 1-2 1z m-268-217c13 3 61 16 61 16l-31 63c-9-2-44-18-42-73 0 0 0-9 12-6z m271 245l-308 0c-17 0-30-14-30-31l0-306c0-17 13-31 30-31l308 0c17 0 30 14 30 31l0 306c0 17-13 31-30 31z m11-333c0-7-6-14-14-14l-303 0c-8 0-14 7-14 14l0 301c0 8 6 14 14 14l303 0c8 0 14-6 14-14z"/>
<glyph glyph-name="social-digg" unicode="&#57368;" d="M474 317c0 2 0 4 0 6-2 0-4 0-5 0-36 0-71 0-107 0-4 0-5-1-5-5 0-40 0-80 0-120 0-5 1-6 6-6 20 1 40 0 61 0 1 0 3 0 5 0 0-6 0-11 0-16 0-4-1-5-5-5-20 0-41 0-62 0-4 0-5-1-5-5 0-8 0-15 0-23 0-4 1-5 5-5 36 0 71 0 106 0 5 0 6 2 6 6 0 58 0 115 0 173z m-49-92c-6 0-13 0-19 0-3 0-4 1-4 4 0 19 0 38 0 57 0 2 1 4 2 4 8 0 16 0 25 0 0-4 0-7 0-11 0-17 0-33 0-49 0-4-1-5-4-5z m-87 98c-35 0-71 0-106 0-4 0-5-1-5-5 0-40 0-80 0-120 0-4 1-6 5-6 20 1 41 0 61 1 5 0 6-2 6-6 0-4 0-8 0-11 0-4-1-5-5-5-20 0-41 0-62 0-1 0-3 0-5 0 0-10 0-19 0-28 0-4 1-5 5-5 35 0 71 0 106 0 2 0 3 0 5 0 0 2 0 4 0 5 0 58 0 117 1 175 0 4-2 5-6 5z m-39-95c0-1-2-3-3-3-7 0-15 0-22 0-1 0-2 2-2 3-1 20 0 41 0 62 8 0 16 0 24 0 1 0 3-2 3-3 0-19 0-39 0-59z m-189 141c0-13 0-26 0-40 0-6 0-6-6-6-21 0-41 0-61 0-4 0-5-1-5-5 0-44 0-88 0-132 0-4 1-5 5-5 36 0 71 0 107 0 1 0 3 0 4 0 0 65 0 129 0 193-14 0-29 0-44 0 0-2 0-4 0-5z m-5-155c-6 0-12 0-18 0-2 0-4 1-4 2 0 25 0 49 0 74 9 0 18 0 27 0 0-2 0-3 0-5 0-22 0-44 0-66 0-4-1-6-5-5z m104 109c-12 0-24 0-36 0-4 0-4-1-4-5 0-13 0-25 0-38 0-31 0-63 0-94 0-4 0-5 4-5 5 0 10 0 14 0 9 0 17 0 26 0 0 1 0 2 0 2 0 46 0 91 0 137 0 3-1 3-4 3z m-37 17c13 0 25 0 38 0 2 0 3 1 3 4 0 4 0 8 0 13 0 5 0 11 0 17-15 0-29 0-44 0 0-11 0-21 0-31 0-1 2-3 3-3z"/>
<glyph glyph-name="social-dribbble" unicode="&#57369;" d="M256 442c-102 0-186-84-186-186 0-102 84-186 186-186 102 0 186 84 186 186 0 102-84 186-186 186z m123-86c22-27 35-61 35-99-5 1-57 12-110 5-1 3-2 6-3 9-4 7-7 15-11 22 59 24 85 58 89 63z m-123 58c40 0 77-15 105-40-3-4-27-36-83-57-26 48-55 87-59 93 12 3 24 4 37 4z m-67-15c4-6 32-45 58-91-74-20-139-20-146-20 10 49 43 90 88 111z m-91-143c0 1 0 3 0 5 7-1 83-2 162 22 5-9 9-18 13-27-2 0-4-1-6-2-82-26-125-98-129-104-25 28-40 65-40 106z m158-159c-37 0-70 13-97 34 3 6 35 68 124 99 0 0 1 0 1 0 22-58 32-106 34-120-19-8-40-13-62-13z m89 27c-2 10-11 56-31 113 49 8 93-5 98-6-7-44-32-83-67-107z"/>
<glyph glyph-name="social-drive" unicode="&#57370;" d="M208 207l-67-115 240 0 67 115z m232 6l-120 208-133 1 121-208z m-256 200l-120-208 66-115 120 208z"/>
<glyph glyph-name="social-dropbox" unicode="&#57371;" d="M174 440l-116-76 80-64 118 72z m-116-205l116-76 82 68-118 73z m198-8l82-68 116 76-80 65z m198 137l-116 76-82-68 118-72z m-198-152l-82-68-35 23 0-25 117-70 117 70 0 25-35-23z"/>
<glyph glyph-name="social-evernote" unicode="&#57372;" d="M122 379c0 0 0 0 0 0l38 0c2 0 4 1 4 3 0 0-1 33-1 42l0 0c0 7 2 13 4 19l2 2c-1 0-1 0-1 0l-73-72c0-1 0-1 0-1 1 1 4 2 4 2 6 3 14 5 23 5z m292 7c-3 16-12 24-21 27-9 4-28 7-51 10-19 2-42 2-55 2-2 11-10 21-18 24-23 10-59 7-68 5-8-2-16-7-20-13-3-4-5-10-5-17 0-5 0-15 0-24 0-9 0-18 0-18 0-8-6-14-15-14l-37 0c-8 0-14-2-19-4-5-2-8-5-10-8-5-7-6-15-6-24 0 0 0-7 1-20 2-10 13-83 24-105 4-9 7-12 15-16 18-8 59-16 79-19 19-2 31-7 39 8 0 0 1 3 3 9 6 19 7 36 7 48 0 1 2 2 2 0 0-8-2-39 21-47 10-3 28-6 48-9 17-2 30-8 30-53 0-27-6-31-36-31-24 0-33-1-33 19 0 15 15 14 27 14 5 0 1 3 1 13 0 9 6 15 0 15-39 1-62 0-62-49 0-45 17-53 73-53 43 0 59 1 77 57 4 12 12 45 17 102 4 36-3 144-8 171z m-76-119c-5 0-11 0-16-1 2 11 6 24 22 24 18-1 21-18 21-29-8 3-17 5-27 6z"/>
<glyph glyph-name="social-facebook" unicode="&#57373;" d="M420 440l-328 0c-11 0-20-9-20-20l0-328c0-11 9-20 20-20l177 0 0 142-48 0 0 56 48 0 0 41c0 48 29 74 71 74 20 0 38-2 43-3l0-49-29 0c-23 0-28-11-28-27l0-36 55 0-7-56-48 0 0-142 94 0c11 0 20 9 20 20l0 328c0 11-9 20-20 20z"/>
<glyph glyph-name="social-flickr" unicode="&#57374;" d="M404 440l-296 0c-20 0-36-16-36-36l0-296c0-20 16-36 36-36l296 0c20 0 36 16 36 36l0 296c0 20-16 36-36 36z m-223-243c-33 0-59 27-59 60 0 33 26 60 59 60 33 0 60-27 60-60 0-33-27-60-60-60z m152 0c-33 0-60 27-60 60 0 33 27 60 60 60 33 0 60-27 60-60 0-33-27-60-60-60z"/>
<glyph glyph-name="social-forrst" unicode="&#57375;" d="M431 46l-175 420-175-419 147 0 0 86-44 31 11 16 33-23 0 67 46 0 0-43 33 18 10-18-43-22 0-25 64 33 9-18-73-36 0-66 92 0 0-1z"/>
<glyph glyph-name="social-foursquare" unicode="&#57376;" d="M185 303c-2 3-6 4-9 4-4 0-7-1-10-4l-32-32c-6-5-6-14 0-19l109-110c3-2 5-4 8-4 1 0 1 0 2 0 0 0 0 0 0 0l0 0c4 0 7 1 10 4l196 197c6 5 6 14 0 19l-32 32c-3 3-6 4-10 4-3 0-7-1-9-4l-155-154z m262-12l-166-166c-7-8-17-11-27-11l-7 0-2 1c-7 1-13 5-18 10l-110 109c-7 8-11 17-11 27 0 10 4 20 11 27l33 32c7 7 17 12 27 12 10 0 19-5 26-12l51-50 107 107-71 72c-19 18-50 18-69 0l-158-159c-19-19-19-49 0-68l158-159c19-18 50-18 69 0l158 159c19 19 19 49 0 68z"/>
<glyph glyph-name="social-game-center" unicode="&#57377;" d="M404 440l-296 0c-20 0-36-16-36-36l0-296c0-20 16-36 36-36l296 0c20 0 36 16 36 36l0 296c0 20-16 36-36 36z m-118-26c55 0 99-45 99-99 0-21-6-41-18-57-14 12-33 19-53 19-34 0-63-19-77-47-30 17-49 48-49 85 0 54 44 99 98 99z m-184-142c0 59 44 108 102 115-17-19-27-44-27-72 0-41 22-77 55-96-1-3-2-7-3-11-6 1-11 2-18 2-25 0-46-15-55-36-33 20-54 56-54 98z m109-175c-28 0-52 23-52 52 0 29 24 52 52 52 29 0 53-23 53-52 0-29-24-52-53-52z m103 17c-17 0-32 5-45 14 2 7 4 14 4 21 0 24-14 45-34 55 6 36 37 63 75 63 42 0 76-35 76-77 0-42-34-76-76-76z"/>
<glyph glyph-name="social-github" unicode="&#57378;" d="M256 451c-110 0-200-90-200-200 0-88 58-163 137-189 10-2 14 4 14 9 0 5-1 17-1 34-55-12-67 27-67 27-9 23-22 29-22 29-18 13 1 12 1 12 20-1 31-20 31-20 18-31 47-22 58-17 2 13 7 22 13 27-45 5-91 22-91 99 0 21 7 39 20 53-2 5-9 25 2 53 0 0 17 5 55-21 16 5 33 7 50 7 17 0 34-2 50-7 38 26 55 21 55 21 11-28 4-48 2-53 13-14 20-32 20-53 0-77-46-94-91-99 7-6 14-18 14-37 0-27 0-48 0-55 0-5 3-11 13-9 80 26 137 101 137 189 0 110-90 200-200 200z"/>
<glyph glyph-name="social-google-plus" unicode="&#57379;" d="M129 248c9-7 19-11 31-11 14 1 27 6 36 16 5 7 8 14 9 22 1 7 2 13 2 18 0 22-6 44-17 67-5 10-12 19-21 26-9 6-19 9-30 10-15-1-28-7-38-18-8-13-12-26-12-42 0-20 6-41 18-62 6-10 13-19 22-26z m34-84c-4 5-8 10-11 16-4 6-5 13-5 21 0 5 0 9 2 13 1 3 2 6 3 9-6 0-12-1-18-1-26 0-47 8-62 23l0-99c13 6 27 10 42 13 19 3 36 4 49 5z m15-16c-4 0-8 0-13 0-2 1-10 0-21-1-12-1-24-4-36-7-2-2-6-3-12-5-5-3-10-6-15-10-4-3-7-7-9-11l0-15c0-14 11-26 25-26l140 0c0 1 0 1 0 1 0 15-4 27-14 37-9 10-24 22-45 37z m237 291l-318 0c-14 0-25-12-25-26l0-35c1 2 3 4 5 6 16 13 32 21 49 25 17 3 33 5 47 5l111 0-34-20-34 0c3-2 7-5 12-9 4-5 8-10 12-16 4-6 7-13 10-21 3-9 4-18 4-29-1-20-5-36-13-48-5-5-9-11-14-16-5-4-10-9-16-14-3-4-6-8-9-12-3-5-5-10-5-16 0-6 2-10 5-14 3-4 6-7 8-10l19-15c12-10 22-20 31-32 8-12 13-27 13-46 0-8-1-15-3-23l145 0c14 0 25 12 25 26l0 314c0 14-11 26-25 26z m20-114l-58 0 0-58-29 0 0 58-58 0 0 29 58 0 0 58 29 0 0-58 58 0z"/>
<glyph glyph-name="social-hacker-news" unicode="&#57380;" d="M404 440l-296 0c-20 0-36-16-36-36l0-296c0-20 16-36 36-36l296 0c20 0 36 16 36 36l0 296c0 20-16 36-36 36z m-132-198l0-88-27 0 0 88-65 119 30 0 29-57c8-16 14-28 21-43l0 0c6 14 13 27 21 43l30 57 30 0z"/>
<glyph glyph-name="social-hi5" unicode="&#57381;" d="M477 286c2 28 3 55 4 82-53 0-107 0-160 0l-8-43 0 31c-29 0-59 0-88 0l0-40-28 0 0-9c-17 13-43 14-62 6l0 55c-39 0-78 0-117 0 0-25 0-51 0-77l15 0 0-66-15 0c0-25 0-51 0-76 104 0 207 0 310 0l0 10c19-11 42-15 64-15 30 0 54 9 71 23 18 14 29 38 30 62 2 21-3 41-16 57z m-232 50l48 0 0-32-48 0z m-32-167l-83 0 0 36 8 0 0 44c0 21-24 13-24-21l0-23 7 0 0-36-83 0 0 36 16 0 0 106-16 0 0 37 76 0 0-78c10 17 24 28 46 28 32 0 37-28 37-39l0-54 16 0 0-36z m95 0l-91 0 0 36 15 0 0 54-15 0 0 36 76 0 0-90 15 0z m84-5c-35 0-64 13-74 32-11 20-3 50 23 51 17 0 28-8 25-28-5-13 4-17 12-17 13 0 22 15 23 29 1 14-5 28-18 28-5 0-11-2-17-9l-45 6 17 92 122 0-2-48-81 0-2-16c12 6 26 9 39 9 34 0 61-17 59-62 0-34-28-67-81-67z"/>
<glyph glyph-name="social-instagram" unicode="&#57382;" d="M348 280c0-51-41-92-92-92-51 0-92 41-92 92 0 14 3 28 9 40l-101 0 0-215c0-20 16-36 36-36l296 0c20 0 36 16 36 36l0 215-101 0c6-12 9-26 9-40z m56 163l-296 0c-20 0-36-16-36-36l0-72 111 0c16 23 43 37 73 37 30 0 57-14 73-37l111 0 0 72c0 20-16 36-36 36z m-303-91l-13 0 0 52c0 9 5 17 13 20l0-72z m22 0l-13 0 0 74 13 0z m22 0l-13 0 0 74 13 0z m22 52l0-52-13 0 0 74 13 0z m255-30c0-12-10-22-22-22l-36 0c-12 0-21 10-21 22l0 30c0 12 9 22 21 22l36 0c12 0 22-10 22-22z m-166-175c45 0 81 36 81 81 0 45-36 81-81 81-45 0-81-36-81-81 0-45 36-81 81-81z m0 145c36 0 65-28 65-64 0-36-29-65-65-65-36 0-65 29-65 65 0 36 29 64 65 64z"/>
<glyph glyph-name="social-joomla" unicode="&#57383;" d="M417 162c-6 5-15 8-23 13 6 33-6 60-32 82-12 11-24 24-35 36-11 11-21 23-33 36-13-15-24-26-35-39 2-2 5-4 7-6 23-24 47-47 70-71 9-9 12-19 8-31-4-11-13-19-25-19-9 0-17 5-26 7-10-10-22-21-33-32 22-23 49-29 80-22 5-20 18-30 35-38 8 0 16 0 24 0 1 1 3 2 5 3 34 14 42 57 13 81z m-128 88c-2-3-3-6-6-8-24-24-47-47-71-71-12-11-27-12-40-1-11 10-13 26-4 39 1 2 3 4 4 5-12 12-23 23-35 35-21-21-28-47-22-77-22-6-33-21-38-42 0-4 0-7 0-10 5-21 17-35 38-42 7 0 15 0 22 0 13 6 26 13 32 28 2 7 6 9 13 8 25-3 46 4 64 21 26 26 52 53 79 82-11 9-23 20-36 33z m-105 42c10-10 21-21 34-33 14 15 29 30 43 44 12 12 23 24 36 35 10 10 23 11 34 4 11-6 17-19 14-31-2-6-6-12-9-17 11-11 23-23 34-34 23 21 29 48 23 78 31 13 44 30 41 52-2 22-18 41-38 43-10 1-21-1-30-4-16-6-23-20-27-35-3 0-5 0-7 0-24 5-46 1-63-15-29-28-56-58-85-87z m-68 47c-9-35 3-63 28-86 12-11 24-23 35-35 12-12 23-24 34-36 13 13 24 24 36 35-3 3-6 6-8 8-23 24-47 48-70 72-11 11-12 28-2 39 11 12 27 14 40 4 2-2 4-3 4-3 12 12 23 24 34 35-19 20-44 27-73 22-14 31-28 42-53 40-19-2-37-16-41-35-6-30 8-50 36-60z"/>
<glyph glyph-name="social-lastfm" unicode="&#57384;" d="M401 274l-30 7c-21 5-27 13-27 28 0 16 13 26 34 26 22 0 35-9 37-30l48 6c-4 43-34 61-83 61-43 0-85-16-85-68 0-33 16-53 56-63l32-8c25-5 33-15 33-29 0-18-17-25-50-25-48 0-68 25-80 60l-15 48c-20 62-52 85-116 85-70 0-107-45-107-120 0-73 37-112 104-112 54 0 79 25 79 25l-15 42c0 0-25-28-62-28-33 0-56 29-56 75 0 59 29 80 58 80 42 0 56-28 67-62l16-48c15-47 44-84 126-84 59 0 99 18 99 66 0 39-21 59-63 68z"/>
<glyph glyph-name="social-linkedin" unicode="&#57385;" d="M413 440l-314 0c-15 0-27-12-27-26l0-316c0-14 12-26 27-26l314 0c15 0 27 12 27 26l0 316c0 14-12 26-27 26z m-232-314l-55 0 0 176 55 0z m-27 200c-18 0-32 14-32 32 0 17 14 32 32 32 17 0 31-15 31-32 0-18-14-32-31-32z m232-200l-55 0 0 86c0 20 0 46-28 46-29 0-33-22-33-45l0-87-55 0 0 176 53 0 0-24 1 0c7 14 25 28 51 28 56 0 66-36 66-83l0-97z"/>
<glyph glyph-name="social-medium" unicode="&#57386;" d="M418 440l-326 0c-10-4-17-12-20-22l0-321c4-15 18-25 34-25l298 0c20 0 36 16 36 36l0 299c0 15-9 28-22 33z m-71-135l-7 0c-2 0-5-3-5-6l0-89c0-2 3-6 5-6l7 0 0-21-64 0 0 21 13 0 0 94-1 0-31-115-25 0-31 115-1 0 0-94 14 0 0-21-55 0 0 21 7 0c3 0 6 4 6 6l0 89c0 3-3 6-6 6l-7 0 0 22 68 0 23-84 0 0 23 84 67 0z"/>
<glyph glyph-name="social-myspace" unicode="&#57387;" d="M404 251c40 0 72 32 72 72 0 39-32 72-72 72-40 0-73-33-73-72 0-40 33-72 73-72z m-98 51c0 36-29 65-65 65-36 0-65-29-65-65 0-36 29-65 65-65 36 0 65 29 65 65z m-213-77c33 0 59 26 59 59 0 32-26 58-59 58-32 0-58-26-58-58 0-33 26-59 58-59z m0-13c-37 0-64-33-64-66l0-23c0-3 3-6 6-6l117 0c3 0 6 3 6 6l0 23c0 33-28 66-65 66z m148 11c-41 0-72-37-72-74l0-25c0-4 3-7 7-7l130 0c3 0 6 3 6 7l0 25c0 37-30 74-71 74z m163 11c-46 0-80-40-80-82l0-27c0-4 3-8 7-8l145 0c4 0 7 4 7 8l0 27c0 42-34 82-79 82z"/>
<glyph glyph-name="social-orkut" unicode="&#57388;" d="M257 336c-46 0-83-37-83-82 0-46 37-82 83-82 45 0 82 36 82 82 0 45-37 82-82 82z m147 104l-296 0c-20 0-36-16-36-36l0-296c0-20 16-36 36-36l296 0c20 0 36 16 36 36l0 296c0 20-16 36-36 36z m-147-311c-69 0-125 56-125 125 0 69 56 124 125 124 68 0 124-55 124-124 0-69-56-125-124-125z"/>
<glyph glyph-name="social-path" unicode="&#57389;" d="M430 299c0 87-70 144-174 144-102 0-174-59-174-144 0-30 13-74 37-96l40 43c-8 8-18 35-18 53 0 59 58 85 115 85 55 0 115-22 115-85 0-69-82-77-112-78l0 113-63 0 0-181c0-18-20-26-41-11l0-65c13-6 25-8 35-8 12 0 21 2 27 5 26 11 42 37 42 65l0 23c104 1 171 55 171 137z"/>
<glyph glyph-name="social-picasa" unicode="&#57390;" d="M338 437c-26 12-53 18-82 18-24 0-47-4-70-13 6-5 146-132 152-138 0 9 0 131 0 133z m-185-352c0 8 0 163 0 172-6-6-80-73-82-75 16-40 45-74 82-97z m-97 171c0-18 3-35 8-52 5 5 173 157 177 161-4 3-74 66-76 68-67-34-109-102-109-177z m118-87c0-4 0-93 0-95 20-10 42-15 64-17l36 0c69 6 131 49 161 112-7 0-257 0-261 0z m185 257c0-8 0-232 0-236 4 0 82 0 85 0 8 21 12 43 12 66 0 69-37 134-97 170z"/>
<glyph glyph-name="social-pinterest" unicode="&#57391;" d="M256 456c-110 0-200-90-200-200 0-82 49-152 120-183-1 14 0 31 3 46 4 16 26 109 26 109 0 0-6 13-6 31 0 30 17 52 38 52 18 0 27-14 27-30 0-18-12-45-18-71-5-21 11-38 32-38 38 0 63 48 63 106 0 44-29 76-83 76-60 0-98-45-98-95 0-18 5-30 13-39 4-5 4-6 3-11-1-4-3-13-4-17-1-5-6-6-10-5-28 12-41 42-41 77 0 57 48 125 143 125 76 0 126-56 126-115 0-78-43-137-108-137-21 0-41 12-48 25 0 0-12-46-14-55-5-15-13-31-21-43 18-5 37-8 57-8 110 0 200 90 200 200 0 110-90 200-200 200z"/>
<glyph glyph-name="social-rdio" unicode="&#57392;" d="M462 355c-50-2-111 38-134 52-2 2-5 3-7 4-2 2-5 3-7 4l0-145 0 0c0-13-4-27-12-40l-1-1c-24-38-73-60-119-45-45 16-58 59-34 98l1 1c24 38 73 60 119 45 4-2 7-3 10-5l0 105c-16 5-34 7-52 7-108 0-188-80-188-179l0-1c0-99 80-178 186-178 108 0 188 80 188 179l0 1c0 8-1 16-2 23 56 15 79 72 52 75z"/>
<glyph glyph-name="social-reddit" unicode="&#57393;" d="M485 261c0 29-24 53-53 53-12 0-24-5-34-13 0 0 0 0 0 0-35 22-80 36-131 38l30 85 75-18c0-24 20-43 43-43 24 0 44 19 44 43 0 24-20 43-44 43-18 0-33-11-39-27l-89 22-37-105c-53-1-100-15-136-38-10 8-22 13-34 13-30 0-53-24-53-53 0-18 9-34 24-44-1-5-1-11-1-16 0-76 92-138 206-138 113 0 206 62 206 138 0 5-1 10-2 15 16 10 25 27 25 45z m-159-68c-18 0-33 14-33 32 0 18 15 33 33 33 18 0 32-15 32-33 0-18-14-32-32-32z m6-56c-1-1-24-24-77-24-53 0-74 24-75 25-3 3-2 9 1 12 4 2 9 2 12-1 0-1 18-20 62-20 45 0 65 20 65 20 3 3 9 3 12 0 3-3 3-8 0-12z m-174 88c0 18 14 33 32 33 18 0 33-15 33-33 0-18-15-32-33-32-18 0-32 14-32 32z"/>
<glyph glyph-name="social-skillshare" unicode="&#57394;" d="M86 230c-2 1-3 3-5 4 1-2 3-3 5-4z m14 202l311 0 0-182c11 7 17 11 21 13l0 180c0 5-5 10-11 10l-331 0c-6 0-11-5-11-10l0-180c4-3 10-7 21-13z m349-166c-2 2-6 2-12 0-1 0-3-1-5-3-4-2-10-6-21-13-4-1-7-3-12-6-1 0-2-1-4-2-25-11-47-15-47-15 0 0-73 0-75 0-1 0-6-1-8-4-2-3-2-9-2-9l0-9c3-2 6-4 9-5 22-7 38-1 44 9 8 11 12 17 20 14 9-4 0-24-10-35-11-11-24-19-42-19-7 0-15 1-21 2 0-15 0-59 0-77 0-22 23-34 39-34 16 0 48 9 64 48 15 38-1 89-1 89 0 0 25 11 51 27 26 17 33 32 33 34 1 3 3 6 0 8z m-123-78c10 11 19 31 10 35-8 3-12-3-20-14-6-10-22-16-44-9-3 1-6 3-9 5-11 8-18 21-24 21l-75 0c0 0-20 3-44 14-3 1-5 2-7 3-5 3-9 5-13 7-11 6-17 10-21 13-1 1-3 2-4 2-6 2-10 2-12 0-3-2-1-6 0-8 0-1 4-11 18-23 2-1 3-3 5-4 3-2 6-5 10-7 26-16 51-28 51-28 0 0-16-50-1-89 16-38 48-47 64-47 16 0 39 12 39 33 0 22 0 83 0 83 0 0 6-2 14-4 6-1 14-2 21-2 18 0 31 8 42 19z m-14 148c-25 0-46-21-46-46 0-26 21-47 46-47 26 0 47 21 47 47 0 25-21 46-47 46z m-110 0c-25 0-46-21-46-46 0-26 21-47 46-47 26 0 47 21 47 47 0 25-21 46-47 46z"/>
<glyph glyph-name="social-skype" unicode="&#57395;" d="M442 214c3 13 4 26 4 40 0 104-84 188-188 188-11 0-22-1-32-3-17 11-37 17-58 17-60 0-109-49-109-109 0-20 5-39 15-55-3-13-4-25-4-38 0-104 84-188 188-188 12 0 23 1 35 3 15-8 32-13 51-13 60 0 109 49 109 109 0 18-4 34-11 49z m-87-50c-9-12-22-22-39-29-16-7-36-10-58-10-27 0-50 4-68 14-12 7-23 16-31 27-8 12-12 23-12 34 0 7 3 13 8 18 5 5 12 7 20 7 6 0 12-2 16-5 5-4 8-10 11-17 4-7 7-14 11-19 4-5 9-9 16-12 7-3 16-5 27-5 16 0 28 4 38 10 9 7 14 14 14 24 0 7-2 13-7 17-5 5-12 9-20 12-9 2-21 5-35 8-19 4-36 9-49 15-14 6-24 13-32 23-8 11-13 23-13 38 0 14 5 27 13 38 9 11 21 20 37 26 15 5 34 8 55 8 17 0 31-2 44-6 12-3 23-9 31-15 8-7 14-13 18-21 4-7 6-14 6-21 0-7-3-13-8-18-5-6-11-8-19-8-7 0-13 1-16 5-4 3-7 8-12 15-4 9-10 16-16 21-7 4-17 7-32 7-13 0-24-3-32-8-8-5-12-11-12-18 0-5 1-8 4-11 2-3 6-6 11-9 5-2 10-4 15-6 5-1 14-3 26-6 15-3 29-7 42-11 12-4 23-9 32-15 9-5 16-13 21-22 5-9 8-20 8-33 0-15-5-30-13-42z"/>
<glyph glyph-name="social-smashing-mag" unicode="&#57396;" d="M234 229c-19 7-37 16-52 27-1 1-1 1-1 1-3 2-5 4-7 5 0 1-1 1-1 2-2 1-4 3-6 4 0 1 0 1-1 1-2 2-3 4-5 6-1 0-1 1-2 1-1 2-3 4-4 6 0 0 0 0-1 1-1 2-3 4-4 6 0 0-1 1-1 1-1 2-3 4-4 6 0 0 0 1 0 1-1 2-2 4-3 7 0 0-1 1-1 1-1 3-2 5-2 7 0 0 0 0 0 0-1 3-2 5-2 8 0 0 0 1 0 1-1 3-1 5-1 8 0 3-1 7 0 10 0 1 0 2 0 3 0 2 0 4 0 7 0 1 0 2 0 3 1 2 1 4 1 6 1 1 1 2 1 4 1 2 1 4 2 6 0 1 0 2 1 3 0 2 1 4 2 6 0 1 1 2 1 2 4 9 9 18 16 26l-77-19c-16-4-25-19-21-35l64-268c4-15 19-25 35-21l33 8c-13 4-35 12-57 23l31 70c0 0 36-32 88-32 53 0 76 61-22 98z m216-68l-64 268c-4 16-19 25-35 21l-55-13c5-1 10-2 17-3 2-1 3-1 5-2 1 0 1 0 2 0 1 0 2-1 4-1 0 0 1-1 2-1 1 0 3-1 5-1 1-1 1-1 2-1 1-1 3-1 4-2 1 0 2 0 3 0 1-1 3-2 4-2 1 0 2-1 2-1 2-1 4-2 7-3 0 0 1 0 2-1 1 0 3-1 5-2 0 0 1 0 2-1 2-1 5-2 7-3l-24-67c0 0-20 22-74 25-51 3-79-53 20-85 3-1 6-2 9-3 0 0 1-1 2-1 2-1 4-2 6-3 1 0 2 0 2 0 3-1 5-3 8-4 0 0 0 0 1 0 2-1 4-2 6-3 1-1 1-1 2-1 2-1 4-3 5-4 1 0 1 0 1 0 3-2 5-3 7-4 0-1 0-1 1-1 1-1 3-2 5-4 0 0 1 0 1-1 2-1 4-2 5-4 29-25 39-55 39-85-1-23-9-42-19-56l57 14c16 4 25 19 21 35z"/>
<glyph glyph-name="social-snapchat" unicode="&#57397;" d="M368 288c5 1 9 3 13 4 7 0 14 0 19-3 10-5 11-15 2-22-7-5-16-8-24-11-18-7-21-13-11-30 15-29 37-51 70-59 3 0 9-4 8-6 0-5-2-11-6-13-11-5-22-9-34-12-8-2-11-4-12-11-4-15-7-17-21-14-23 4-43 0-62-14-40-28-69-28-108 1-19 14-39 17-61 13-16-3-18-1-22 14-1 6-4 9-11 11-11 2-23 6-33 11-4 2-8 8-8 13-1 2 6 7 11 8 35 10 57 34 71 66 4 8 1 13-5 17-6 3-12 5-18 7-4 2-8 4-12 6-7 4-13 9-8 19 3 8 14 12 23 9 4-2 9-4 14-5 7-1 10 1 10 9 0 18-1 36 0 54 3 39 26 64 60 78 50 19 109 4 136-44 10-17 11-35 12-54-1-12-1-23-2-35-1-7 3-9 9-7z"/>
<glyph glyph-name="social-spotify" unicode="&#57398;" d="M256 456c-110 0-200-90-200-200 0-52 20-99 53-135 13 15 28 27 46 36 22 11 45 17 70 17 39 0 76-15 105-41 14-13 25-28 33-45 56 35 93 97 93 168 0 110-90 200-200 200z m95-278c-3-3-7-5-11-5-3 0-6 0-8 2-31 22-68 33-106 33-22 0-44-4-64-11-7-3-15 1-17 8-3 7 1 14 8 17 23 9 48 13 73 13 44 0 85-13 121-38 6-4 8-12 4-19z m29 62c-3-5-8-7-13-7-3 0-6 1-8 2-40 25-86 38-133 38-26 0-52-4-77-12-8-2-16 2-19 10-2 8 2 16 10 19 28 9 57 13 86 13 53 0 104-15 149-43 7-4 9-13 5-20z m14 53c-3 0-6 1-8 2-48 29-104 44-160 44-30 0-61-5-90-13-8-3-18 2-20 11-3 9 2 18 11 21 32 9 65 14 99 14 62 0 123-17 177-48 8-5 10-15 6-23-3-5-9-8-15-8z m-113-213c-15 14-35 22-56 22-13 0-26-3-38-9-7-4-14-9-20-16 26-13 57-21 89-21 14 0 27 2 40 4-4 8-9 14-15 20z"/>
<glyph glyph-name="social-squidoo" unicode="&#57399;" d="M464 173c-11 39-46 67-87 68-6 0-11 3-14 9-4 10-4 20 1 30 4 9 9 18 13 27 6 12 9 24 7 38-3 16-12 28-24 39-19 18-43 28-68 34-17 4-27 15-30 31-1 5-2 10-3 14-2-2-2-5-3-8-2-23 8-40 29-48 3-1 5-2 8-3 16-7 31-15 43-28 16-17 18-35 4-55-8-11-18-21-26-34 0 2 0 3 0 4-4 15-7 30-16 44-20 29-45 50-77 64-12 6-25 11-35 21-18 18-24 39-23 63-1 0-2 0-2 0 0 0 0-1 0-2-7-40 5-73 35-100 11-11 24-19 38-27 17-10 29-25 31-45 2-11 2-22 2-33 1-4-2-2-4-2-20 3-40 10-59 18-20 9-32 24-39 44-1 4-2 8-3 12-4 14-7 28-14 41-6 12-14 23-27 27-26 6-51 5-75-8-1 0-3-1-2-3 1-1 2 0 3 0 13 2 26 3 39 1 26-5 42-19 47-45 1-8 4-17 5-26 8-46 33-81 74-104 8-5 16-10 25-16-11-2-20-3-30-5-20-4-40-7-60-6-11 1-21 3-25 15-1 4-3 7-3 11-6 21-5 44-4 65 1 24-15 44-38 46-1 0-3 1-3 0 12-10 22-21 21-39-1-8-3-17-4-25-4-21-8-42-4-63 3-21 11-38 30-48 12-6 25-9 38-10 24-1 48 4 71 7 22 3 36-5 39-27 1-4 2-8 2-12 1-25 10-48 27-66 21-23 48-33 78-28 47 6 76 35 91 78 7 21 7 43 1 65z"/>
<glyph glyph-name="social-stack-overflow" unicode="&#57400;" d="M334 76l-215 0 1 144-32 0-1-179 281 0 0 179-34 0z m-194 59l169 0 0-36-169 0z m4 65l169-17-3-36-169 16z m16 73l163-46-10-36-163 46z m39 82l145-87-19-32-145 88z m152-81l-99 138 30 22 99-138z m9 191l37 6 28-167-37-6z"/>
<glyph glyph-name="social-steam" unicode="&#57401;" d="M473 302c0-20-16-36-36-36-20 0-36 16-36 36 0 20 16 36 36 36 20 0 36-16 36-36z m-36 68c-37 0-67-30-67-67l-42-60c-2 0-4 0-5 0-10 0-19-3-26-7l-190 76c-5 23-25 40-49 40-28 0-50-23-50-50 0-28 22-51 50-51 9 0 18 3 26 7l190-76c4-23 25-40 49-40 26 0 47 20 50 46l64 47c37 0 67 30 67 67 0 37-30 68-67 68z m0-23c25 0 45-20 45-45 0-25-20-45-45-45-25 0-45 20-45 45 0 25 20 45 45 45z m-379-8c14 0 26-8 33-20l-19 7 0 0c-15 6-31-2-37-16-6-15 1-32 15-38l0 0 16-7c-3 0-5 0-8 0-21 0-37 16-37 37 0 20 16 37 37 37z m265-109c20 0 37-17 37-37 0-21-17-37-37-37-15 0-27 8-33 19 6-2 12-4 18-7 15-6 32 1 38 16 6 15-1 33-16 39l-15 6c2 0 5 1 8 1z"/>
<glyph glyph-name="social-stumbleupon" unicode="&#57402;" d="M414 378c26-33 42-76 42-122 0-110-90-200-200-200-78 0-145 45-178 109l87 0c42 0 71 23 71 58 0 76-88 45-88 72 0 13 11 18 30 18l60 0c17 0 37-3 37-22l0-60c0-44 34-66 69-66 36 0 70 22 70 66l0 147z m-158 78c42 0 80-13 112-35l0-191c0-14-11-25-24-25-13 0-24 11-24 25l0 57c0 46-23 65-53 65-33 0-66 0-99 0-35 0-65-23-65-59 0-18 8-45 46-52 30-5 42-4 42-20 0-16-18-16-41-16l-87 0c-4 17-7 34-7 51 0 110 90 200 200 200z"/>
<glyph glyph-name="social-treehouse" unicode="&#57403;" d="M252 308c-24-18-47-38-74-52-4-2-8-4-13-5-12-4-20-15-20-27 0-13 9-24 21-27 12-3 25 2 31 13 7 15 20 24 33 34 5 3 7 3 11-2 4 9 9 18 13 27 1-1 1-2 1-2-7-26-14-52-22-77-2-5-5-10-10-13-15-9-18-28-9-43 8-14 27-19 41-11 15 8 22 26 14 41-2 5-2 10-1 16 4 14 6 29 14 41 3 6 7 11 13 15 7 4 11 3 16-3 6-7 9-15 8-25-1-13 7-25 19-29 12-4 25 1 32 11 7 11 7 24-2 34-10 12-21 23-30 35-16 21-17 43-4 66 7 13 14 25 22 38 6 11 14 21 26 27 9 5 19 6 29 0 6-4 13-8 19-11 15-9 23-22 23-39 0-56 0-112 0-168 0-17-8-30-22-38-51-29-101-58-152-86-15-9-30-9-46 0-51 28-102 57-152 86-14 8-22 21-22 37 0 57 0 113 0 170 0 16 7 29 21 37 52 29 103 58 155 87 13 7 28 7 41 0 8-3 16-8 24-12 6-4 8-10 9-16 2-12-1-23-7-33-7-13-14-25-21-37-14-22-33-36-59-40-16-3-33 0-49 1-12 2-23-5-27-16-4-11 0-23 10-30 10-6 23-4 31 5 6 5 13 5 19 6 6 1 11 1 16 2 2 0 4 0 5 1 8 4 16 9 24 13 0 0 0-1 1-1z"/>
<glyph glyph-name="social-tumblr" unicode="&#57404;" d="M404 440l-296 0c-20 0-36-16-36-36l0-296c0-20 16-36 36-36l296 0c20 0 36 16 36 36l0 296c0 20-16 36-36 36z m-62-308c-12-5-23-9-33-12-9-2-20-3-31-3-13 0-24 2-34 5-9 3-18 8-25 14-6 6-11 12-14 19-3 6-4 16-4 29l0 97-31 0 0 39c11 4 21 9 28 16 8 6 14 14 19 23 5 10 8 22 10 36l39 0 0-70 66 0 0-44-66 0 0-71c0-16 1-27 3-31 2-5 5-8 10-11 6-4 13-6 21-6 14 0 28 5 42 14l0-44z"/>
<glyph glyph-name="social-twitter" unicode="&#57405;" d="M453 378c-14-6-30-11-46-12 16 10 29 25 35 44-15-9-33-16-51-19-15 15-36 25-59 25-45 0-81-36-81-81 0-6 1-12 2-18-67 3-127 35-167 84-7-12-11-25-11-40 0-28 15-53 36-68-13 1-25 4-36 11 0-1 0-1 0-2 0-39 28-71 65-79-7-2-14-3-22-3-5 0-10 1-15 2 10-32 40-56 76-56-28-22-63-35-101-35-6 0-13 0-19 1 36-23 78-36 124-36 149 0 230 123 230 230 0 3 0 7 0 10 16 12 29 26 40 42z"/>
<glyph glyph-name="social-vimeo" unicode="&#57406;" d="M405 440l-298 0c-19 0-35-16-35-35l0-298c0-19 16-35 35-35l298 0c19 0 35 16 35 35l0 298c0 19-16 35-35 35z m-24-117c-3-15-22-67-57-114-15-19-33-39-56-52-8-5-25-11-36-7-8 4-13 10-18 19-9 15-13 36-17 52-4 15-8 29-12 41-3 8-4 15-7 22-1 1-1 1-1 1 0 0 0 0 1-1-1 1-1 1-1 1 0 0 0 0 0 0 0 2-1 4-2 5-9 15-22 1-35 3-3 0-6 3-8 6-1 1 1 3-4 4l0 1c20 15 37 34 59 46 7 4 19 9 28 6 8-2 15-9 18-19 0 0 0 0 0 0 1 0 2-4 2-5 4-11 6-26 8-37 2-17 2-44 12-59l0 0c1 0 3-4 4-6 17-17 29 7 36 20 5 10 10 21 11 31 1 6 1 10 0 14-3 10-12 12-26 12-1 0-3 0-5 0 12 38 49 54 60 55 13 2 32 2 41-9 2-3 3-5 4-8 3-7 2-14 1-22z"/>
<glyph glyph-name="social-windows" unicode="&#57407;" d="M440 267l0 178-205-29 0-149z m-219 146l-149-21 0-125 149 0z m-149-166l0-126 149-22 0 148z m163-150l205-30 0 180-205 0z"/>
<glyph glyph-name="social-xbox" unicode="&#57408;" d="M204 341c-59 36-94 51-94 51-33-35-54-83-54-136 0-47 17-91 44-125 0 0-27 74 104 210z m52 38l0 0c0 0 0 0 0 0 80 58 129 29 129 29-34 30-80 48-129 48-50 0-95-18-130-48 0 0 50 30 130-29z m-1-82c-111-82-143-179-143-179 36-38 87-62 144-62 57 0 108 24 144 62 0 0-21 87-145 179z m201-41c0 53-21 101-54 136 0 0-35-15-94-51 131-136 104-210 104-210 27 34 44 78 44 125z"/>
<glyph glyph-name="social-yahoo" unicode="&#57409;" d="M460 114l-53 6 6 46 53-6z m52 278l-90 11 1-207 39-6z m-180-36c-36 27-83 41-139 41-57 0-104-14-139-41-36-27-54-61-54-103 0-43 18-78 54-105 29-22 66-35 111-39l56 0c44 4 81 17 111 39 35 27 53 62 53 105 0 42-18 76-53 103z m-27-68l-27-6c-4-1-15-9-34-25-21-16-31-27-33-32l-1-14-1-9 3-22 36-1-1-11-59 0-52 0 2 10 17 1c8 0 14 1 15 3 1 1 2 8 2 21l0 7-1 15c-1 4-10 16-28 39-19 22-31 36-37 40l-33 5 0 10c1 1 20 1 54 0 24 1 44 1 60 0l-2-8-35-4c11-16 28-39 51-67 29 22 45 37 45 43l-30 5-2 10 50 0 48 0z"/>
<glyph glyph-name="social-yelp" unicode="&#57410;" d="M296 197c-7-7-1-20-1-20l54-90c0 0 9-12 17-12 7 0 15 6 15 6l43 61c0 0 4 8 4 15 0 9-14 12-14 12l-101 32c0 0-10 3-17-4z m-5 46c5-9 20-6 20-6l100 29c0 0 14 6 16 13 2 7-2 16-2 16l-48 57c0 0-5 7-13 8-10 1-16-11-16-11l-57-89c0 0-5-9 0-17z m-48 35c12 3 14 20 14 20l-1 143c0 0-1 18-9 23-13 7-17 4-20 3l-84-31c0 0-8-3-12-10-6-9 6-24 6-24l87-118c0 0 9-9 19-6z m-20-58c0 11-14 17-14 17l-89 46c0 0-14 5-20 1-5-3-10-8-10-12l-6-73c0 0-1-12 2-18 5-8 20-2 20-2l105 23c4 3 11 3 12 18z m26-39c-9 4-20-5-20-5l-70-78c0 0-9-12-7-19 2-7 6-10 11-12l70-23c0 0 9-1 15 0 10 3 8 17 8 17l2 105c0 0-1 10-9 15z"/>
<glyph glyph-name="social-youtube" unicode="&#57411;" d="M231 152c-3-5-7-8-10-8-2 0-3 1-4 4 0 0 0 2 0 6l0 65-16 0 0-70c0-6 1-10 2-13 1-4 5-7 10-7 6 0 12 4 18 11l0-9 16 0 0 88-16 0z m-88 81l19 0 0-102 18 0 0 102 19 0 0 17-56 0z m109 78c6 0 8 4 8 12l0 38c0 8-2 12-8 12-5 0-7-4-7-12l0-38c0-8 2-12 7-12z m42-91c-6 0-11-3-17-9l0 39-16 0 0-119 16 0 0 8c6-6 11-10 17-10 6 0 11 4 13 10 1 4 2 10 2 18l0 36c0 8-1 14-2 17-2 7-7 10-13 10z m-2-64c0-8-2-12-7-12-2 0-5 1-8 4l0 54c3 3 6 4 8 4 5 0 7-4 7-12z m53 64c-8 0-14-3-19-9-3-4-5-11-5-21l0-31c0-9 2-16 5-20 5-7 11-10 20-10 8 0 15 4 19 10 2 3 3 6 4 10 0 1 0 5 0 10l0 2-16 0c0-6 0-10-1-10 0-5-3-7-7-7-5 0-8 4-8 12l0 16 32 0 0 19c0 9-1 16-5 20-4 6-11 9-19 9z m8-34l-16 0 0 8c0 8 3 12 8 12 5 0 8-4 8-12z m51 254l-296 0c-20 0-36-16-36-36l0-296c0-20 16-36 36-36l296 0c20 0 36 16 36 36l0 296c0 20-16 36-36 36z m-114-53l16 0 0-66c0-4 0-6 0-7 0-2 2-3 4-3 3 0 7 2 10 7l0 69 16 0 0-90-16 0 0 10c-6-8-12-11-18-11-6 0-9 2-11 6-1 3-1 7-1 14z m-62-30c0 10 2 17 5 22 5 6 11 9 19 9 8 0 15-3 19-9 4-5 5-12 5-22l0-31c0-9-1-17-5-21-4-6-11-9-19-9-8 0-14 3-19 9-3 4-5 12-5 21z m-43 60l13-47 12 47 18 0-22-71 0-49-18 0 0 49c-1 8-5 21-11 38-3 11-7 22-11 33z m199-292c-3-14-14-24-28-26-33-3-67-3-100-3-33 0-67 0-100 3-14 2-25 12-28 26-5 20-5 42-5 63 0 21 0 43 5 63 3 14 15 25 28 26 33 4 67 4 100 4 33 0 67 0 100-4 14-1 25-12 28-26 5-20 5-42 5-63 0-21 0-43-5-63z"/>
<glyph glyph-name="social-zerply" unicode="&#57412;" d="M192 197c37-3 66-23 95-41 21-13 44-21 69-20 12 0 23 4 32 12 4 3 6 2 7-3 9-37-21-75-59-76-19 0-35 6-51 16-17 12-34 24-51 36-32 21-67 28-105 24-11-2-12-1-13 11-2 22 6 40 21 56 42 46 83 92 122 140 3 4 7 9 10 13 1 1 3 2 2 4-1 2-3 1-5 1-18-1-37-2-55-2-10 0-19 2-28 6-15 6-19 17-14 32 5 12 12 23 19 34 2 3 4 4 8 2 17-9 36-11 55-13 40-3 79 0 119 8 5 1 5-2 6-5 2-18-4-33-16-46-42-48-83-98-128-143-14-14-28-28-40-46z"/>
<glyph glyph-name="social-zurb" unicode="&#57413;" d="M404 440l-296 0c-20 0-36-16-36-36l0-296c0-20 16-36 36-36l296 0c20 0 36 16 36 36l0 296c0 20-16 36-36 36z m-44-221l0-27c0-6-5-10-10-11l-154 0c-12 0-21 4-29 11-8 8-13 17-13 27 0 8 3 16 9 22 5 7 12 11 20 14l135 38-164 0 0 27c1 5 4 10 10 11l155 0c11 0 21-4 29-11 8-8 12-16 12-26 0-9-3-16-8-23-6-6-13-11-21-13l-135-39z"/>
<glyph glyph-name="play" unicode="&#57414;" d="M128 416l256-160-256-160z"/>
<glyph glyph-name="pause" unicode="&#57415;" d="M128 96l96 0 0 320-96 0z m160 320l0-320 96 0 0 320z"/>
</font>
</defs>
</svg>
